요청중...
티노리 외부 Bitsnoop 네이버 구글 다음
04-18 파일오류 신고 동참안내
04-15 티노리 도메인 변경 안내
04-12 티노리 업데이트 완료 안내
시작페이지등록 | 즐찾추가 | 트위터 | 현재위치 > 토렌트 > 영화 > 더 울프 오브 월 스트리트 The Wolf of Wall Street 2013 DVDSCR X264 AAC-COBRA
무료회원가입 | 정보찾기
커뮤니티 공지사항 확인은 필수!
공지사항 | 등업신청 | 문의사항
진도현장 고화질 생중계 NEW
자유게시판 | 출석체크 | 가입인사
이용팁 | 유용한정보 | 묻고답하기
리뷰 | 스마트폰
수집1 | 수집2 | 수집3
스포츠맨 긴장하라! O/X게임오픈!
실시간스코어 | 경기분석 H
O/X게임 N | O/X유의사항 N
O/X게시판 N | 즉석복권 N
04-21 287회차 - 결과: O
토렌트 TOP100 다운로드
μTorrent 다운로드 | 토렌트 사용법
영화 | 고화질 | TV드라마 | TV예능
다큐/시사 | 해외TV | 추억속자료
한국뮤직 | 해외뮤직 | 스포츠 | 애니
유틸 | 게임 | 휴대기기 | 어린이
동영상 | 기타 | 자막 | 요청

TV드라마 다시보기 | TV예능 다시보기
다큐/시사 다시보기
성인공간
신작보기 N
놀이터
웃긴자료 | 얼짱/몸짱 | 연예인
은꼴 | 액션 | 자동차/레걸
TV영화 | 스포츠 | 감동 | 공포
심리테스트 | 플래시게임 | 배경
동/식물 | 음식/요리 | 음악방송
포인트
포인트정책 | 나눔 | 순위
아이콘샵 | 홍보포인트
주간 인기 게시물 1~10 위 순위
총 게시물 33,505건, 최근 88 건
   
[드라마]

더 울프 오브 월 스트리트 The Wolf of Wall Street 2013 DVDSCR X264 AAC-COBRA

글쓴이 : 익명 날짜 : 2014-01-11 (토) 20:00 조회 : 1490 성인쇼핑몰 랭킹닷컴1위
No 파일명 다운로드 상태 용량
추천  더 울프 오브 월 스트리트 The Wolf of Wall Street 2013 DVDSCR… 2.4GB
 The Wolf of Wall Street 2013 DVDSCR X264 AAC-COBRA-.torrent 16.6K (111)
1번: 토렌트 실시간분석
ㆍleecher:
ㆍseeder:
ㆍpeer:
1번: The Wolf of Wall Street 2013 DVDSCR X264 AAC-COBRA-.torrent [토렌트 정보닫기]
트래커
http://tracker.trackerfix.com:80/announce
udp://9.rarbg.me:2710/announce
udp://11.rarbg.me:80/announce
udp://10.rarbg.me:80/announce
udp://12.rarbg.me:80/announce
udp://9.rarbg.com:2710/announce
udp://tracker.token.ro:80/announce
udp://tracker.istole.it:80/announce
udp://11.rarbg.com/announce
udp://9.rarbg.com:2710/announce
udp://10.rarbg.com/announce
udp://tracker.publicbt.com:80/announce
udp://pow7.com:80/announce
udp://ipv4.tracker.harry.lu:80/announce
udp://12.rarbg.me:80/announce
파일
1 Uploaded by TheKing.txt 116.00B
2 The.Wolf.of.Wall.Street.2013.DVDSCR.X264.AAC-COBRA.mp4 1.52G
3 The.Wolf.of.Wall.Street.2013.DVDSCR.X264.AAC-COBRA Sample.mp4 24.61M
생성일: 2014-03-04 / 총 파일 갯수 : 3개 / 총 파일 사이즈 : 1.54G
The Wolf of Wall Street 2013 DVDSCR X264 AAC-COBRA

dyhr.png

The Wolf of Wall Street 2013 DVDSCR X264 AAC-COBRA

1FintKJy.jpeg

IMDB
http://www.imdb.com/title/tt0993846/

File size : 1.52 GiB
Duration : 2h 59mn
Overall bit rate : 1 211 Kbps


Video
ID : 1
Format : AVC
Format/Info : Advanced Video Codec
Format profile : High@L3.0
Format settings, CABAC : Yes
Format settings, ReFrames : 5 frames
Format settings, GOP : M=4, N=24
Codec ID : avc1
Codec ID/Info : Advanced Video Coding
Duration : 2h 59mn
Bit rate mode : Variable
Bit rate : 1 050 Kbps
Maximum bit rate : 5 576 Kbps
Width : 720 pixels
Height : 304 pixels
Display aspect ratio : 2.35:1
Frame rate mode : Constant
Frame rate : 23.976 fps
Color space : YUV
Chroma subsampling : 4:2:0
Bit depth : 8 bits
Scan type : Progressive
Bits/(Pixel*Frame) : 0.200
Stream size : 1.32 GiB (87%)
Writing library : x264 core 138 r2358 9e941d1


Audio
ID : 2
Format : AAC
Format/Info : Advanced Audio Codec
Format profile : LC
Codec ID : 40
Duration : 2h 59mn
Bit rate mode : Variable
Bit rate : 157 Kbps
Maximum bit rate : 267 Kbps
Channel(s) : 2 channels
Channel positions : Front: L R
Sampling rate : 48.0 KHz
Compression mode : Lossy
Stream size : 202 MiB (13%)


source >>>>>>DVDScr x264-HaM.... Thanks

sample provided

Screenshots :

20NOUoM0.png

6qo5szG6.png

qQIrRU9i.png

kgGg5Dcm.png

wvyLGdRH.png

VLCG5deN.png

qlSAemm.png
더 울프 오브 월 스트리트 The Wolf of Wall Street 2013 DVDSCR X264 AAC-COBRA

   

총 게시물 33,504건, 최근 88 건
번호 제목 날짜 추천
[공지]  zip 파일이나 홍보글 유의사항 08-31 0
15654 [공포/스릴러]  디 아더스 The Others 2001 720p BRRip XviD AC3-RARBG 한글 12-12 0
15653 [SF/판타지]  사구 Dune.1984.DVDRip.XviD.AC[한글자막] 12-12 0
15652 [코미디]  줄다리기 綱引いちゃった Tusnahiki.Zanta.2012.JAP.DVDRip.x264.AC3-… 12-12 0
15651 [드라마]  도쿄가족 東京家族 Tokyo.Kazoku.2013.BDRip.x264.AC3-ADiOS[한글자막… +1 12-12 0
15650 [드라마]  소설, 영화와 만나다 Short.Short.Short.2013.720p.HDRip.H264-Cine21… +1 12-13 0
15649 [코미디]  디제스터 영문자막 12-13 0
15648 [Comedy]  The.Single.Moms.Club.2014.CAM.x264.AC3.FooKaS 03-27 0
15647 [기타]  You.Know.What.It.is.A.Secret.1990.KOR.DVDRip.XviD.avi 02-08 0
15646 [코미디]  그로운 업스 : 더블로지 Grown Ups Duology [2010-2013] 480p BRRip H… 12-13 0
15645 [액션/무협]  도서관 전쟁 Library Wars 2013 720p BRRip x264 AC3-JYK 12-13 0
15644 [멜로/로멘틱]  피스트 오브 러브 Feast Of Love 2007 BRRip XviD-playXD 12-13 0
15643 [일반]  베러 리빙 스루 케미스트리(Better Living Through Chemistry). 2014 … 03-27 0
15642 [드라마]  책도둑 The.Book.Thief.2013.BluRay.720p.DTS.x264-MgB 03-21 0
15641 [Drama]  Young and Beautiful 2013 1080p BluRay x264 AAC - Ozlem 03-27 0
15640 [스릴러]  탑 건 Top Gun 1986 720p BluRay Dts x264 Qit-Miguel 한글자막 12-13 0
15639 [액션]  웨스트브릭 머더스 (자체자막 Westbrick.Murders.2011.KORSUB.HDRip.x… 12-13 0
15638 [액션]  시노비도 (자체자막 忍道 Shinobido.2011.KORSUB.HDRip.x264.AC3-ADiO… 12-13 0
15637 [기타]  마이클 잭슨: 더 라이프 오브 언 아이콘 Michael.Jackson:The.Life.o… 12-13 0
15636 [기타]  테이커스 Release Title Takers 2010 BRRip 720p H264 AAC - SecretMy… 12-13 0
15635 [기타]  브루스 올마이티 Bruce Almighty 2003 HDDVDRip 720p H264-3Li 한글자… +2 12-13 0
15634 [기타]  차이나타운 Chinatown.1974.1080p.BluRay.X264-AMIABLE 한글자막 12-13 0
15633 [드라마]  서약 The.Vow.2012.R5.DVDRip.XviD.MP3-REFiLL 한글자막 +4 12-13 0
15632 [드라마]  개선문 한글/영문 자막 12-13 0
15631 [액션]  마세티 킬즈 [자막유] Machete Kills 2013 1080p BRRip h264 AAC RARB… 12-13 0
15630 [고전]  목로주점 한글/영문 자막 12-13 0
처음  이전  711  712  713  714  715  716  717  718  719  720  다음  맨끝
검색은 회원만 가능
게시물 내용에 대해 www.tonawa.net 는 보증하지 않으며, 이에 대한 판단의 책임은 이용자 본인에게 있습니다
www.tonawa.net 에서는 utorrent프로그램을 통해 자료를 받기위하여 중계역할 및 토렌토파일을 배포역할만 하며
해당 자료에 대한 실질적인 파일은 서버에 보관 하지 않으며 utorrent프로그램을 통해서 배포하게 되므로 www.tonawa.net 와는 관계가 없음을 명시합니다
Copyright 2014 ⓒ www.tonawa.net All rights reserved.